DNS SERVER AENDERNum der staatlichen Zensur zu umgehen. Sollten wir von eurem Provider geseprrt werden, nutzt den TOR BROWSER oder ändert euren DNS SERVER.

Filmwünsche können bei uns im Forum abgegeben werden

Wir Speichern Nicht




 
 
 
Top Releases
Deadpool.2.2018.THEATRiCAL.M...
Stronger.2017.MULTi.COMPLETE...
Ghost.Stories.Glaubst.du.an....
Please.Stand.By.2017.GERMAN....
Please.Stand.By.2017.GERMAN....
Deadpool.2.Super.Duper.Cut.2...
David.Brent.Life.on.the.Road...
David.Brent.Life.on.the.Road...
Amanda.Knox.2016.German.DL.D...
Amanda.Knox.2016.German.DL.D...

Cinedubs
The.Equalizer.2.TS.LD.German...
Der.Hauptmann.2017.German.AA...
Der.Hauptmann.2017.German.AA...
Ghost.Stories.2017.German.AC...
Ghost.Stories.2017.German.AC...
Oceans.8.German.DL.AC3.Dubbe...
Oceans.8.German.DL.AC3.Dubbe...
Hereditary.Das.Vermaechtnis....
Hereditary.Das.Vermaechtnis....
Oceans.8.2018.German.DL.AC3D...

Neuerscheinungen 2017-18
The.End.2017.GERMAN.DUAL.COM...
The.End.2017.GERMAN.1080p.Bl...
Vater.des.Jahres.2018.German...
The.End.2017.GERMAN.720p.Blu...
Derren.Brown.The.Push.2018.G...
Derren.Brown.The.Push.2018.G...
Das.Vermaechtnis.des.Weisswe...
Das.Vermaechtnis.des.Weisswe...
Barry.2016.German.DL.720p.WE...
Barry.2016.German.DL.1080p.W...

XXX
PixAndVideo.18.08.20.Mary.Ka...
PlumperPass.18.08.20.Serenit...
PornMegaLoad.18.08.16.Zoe.Bl...
PornMegaLoad.18.08.16.Helen....
PervMom.18.07.31.Nina.Kayy.X...
PornMegaLoad.18.08.16.Claudi...
PornstarPlatinum.18.08.21.Am...
PornMegaLoad.18.08.15.Ana.Ro...
PervMom.18.07.19.Christiana....
PlayboyPlus.18.08.23.Elina.L...
Private.18.08.20.Private.Cas...
PlayboyPlus.18.08.17.Maija.R...
PornMegaLoad.18.08.16.Eliza....
PornFidelity.E756.Dakota.Sky...
Private.18.08.17.Lullu.Gun.M...
PornMegaLoad.18.08.17.Luna.B...
Private.18.08.21.Private.Cas...
Private.Specials.219.Anal.Lo...
Overstuffed.XXX.720p.WEBRip....
PornstarPlatinum.18.07.24.Am...

3D
Avengers.Infinity.War.3D.201...
Rampage.Big.Meets.Bigger.3D....
Rampage.Big.Meets.Bigger.3D....
Rampage.Big.Meets.Bigger.3D....
Winter.Games.3D.2013.DUAL.CO...
Tomb.Raider.3D.2018.German.7...
Rampage.Big.Meets.Bigger.3D....
Rampage.Big.Meets.Bigger.3D....
Tomb.Raider.3D.2018.MULTi.CO...
Pacific.Rim.Uprising.3D.2018...
Ready.Player.One.3D.2018.Ger...
Rampage.-.Big.Meets.Bigger.2...
Ready.Player.One.2018.3D.HOU...
Ready.Player.One.2018.3D.HSB...
Ready.Player.One.3D.2018.MUL...

Old_Stuff
Meine.liebe.Rabenmutter.germ...
Da.Vincis.Demons.S01.Complet...
Eragon.Das.Vermaechtnis.der....
Adele.und.das.Geheimnis.des....
Die.fabelhafte.Welt.der.Amel...
Haus.des.Geldes.S01.German.M...
How.I.Met.Your.Mother.S01.Ge...
The.Dark.Knight.Rises.2012.M...
Weissensee.S03.2015.GERMAN.C...
Weissensee.S01+S02.2010.GERM...
Die.Unglaublichen.-.The.Incr...
Der.grosse.Trick.1978.German...
Sully.2016.MULTi.COMPLETE.BL...
Tremors.3.Die.neue.Brut.2001...
Die.Indianer.von.Cleveland.2...

Filme
Fear.The.Walking.Dead.S04.Ge...
Fear.The.Walking.Dead.S04.Ge...
Complications.S01.COMPLETE.G...
Blood.And.Flowers.Der.Waecht...
Casablanca.1942.German.AC3.D...
The.Remains.2016.German.DL.1...
The.Punisher.2004.UNCUT.Germ...
Ein.Kind.wartet.1963.German....
Leatherface.Texas.Chainsaw.M...
Leatherface.Texas.Chainsaw.M...
Todeszug.nach.Yuma.2007.Germ...
Cabal.Die.Brut.Der.Nacht.Dir...
Opfer.einer.grossen.Liebe.19...
Party.Animals.wilder.gehts.n...
Draculas.Hexenjagd.GERMAN.19...
A.Star.Is.Born.1937.German.A...
Amusement.2009.German.AC3D.1...
Unsere.Erde.2.2017.German.UH...
Shooter.S03.GERMAN.DUBBED.DL...
Shooter.S03.GERMAN.DUBBED.DL...
Die.Simpsons.S29.GERMAN.DUBB...
Die.Simpsons.S29.GERMAN.DUBB...
MacGyver.S02.GERMAN.DUBBED.D...
Better.Call.Saul.S04.German....

 
 
The.Quest.Die.Serie.The.Librarians.S04.COMPLETE.German.DL.720p.BluRay.x264-EXCiTED

Jahr: 2017
Genre: Action | Abenteuer | Komödie
Sprache: Deutsch DTS | Englisch AC3
Laufzeit: 42min je Folge
Bitrate: 2100 Kbps
Format: MKV
Größe: 1,3 GB je Folge
Release:

Beschreibung:

Die Bibliothekare begeben sich in neue, actiongeladene Abenteuer und riskieren erneut ihr Leben, um die Welt zu retten. Sie treten gegen den Bruder des Weihnachtsmanns, den Schutzpatron der Diebe, an, versuchen, eine Stadt zu retten, die von Geistern aus dem Bürgerkrieg heimgesucht wird, kämpfen gegen ein Casino, das Glück stiehlt, und durchleiden ein Fiasko, das den Körper verändert. Ihre größte Herausforderung kommt jedoch aus der Bibliothek selbst. Da Charlene nicht mehr an die Bibliothek gebunden ist, wodurch diese wiederum an die Menschheit gebunden war, müssen ein Bibliothekar und ein Wächter aufsteigen und ihr Amt einnehmen. Während Jenkins das Ritual organisiert, das das Paar für immer mit der Bibliothek verbindet, offenbart sich eine Frau aus Flynns Vergangenheit als eines der schmutzigen kleinen Geheimnisse der Bibliothek, und jeder Bibliothekar muss sich fragen: Ist die Bibliothek selbst gut oder böse?



General
Complete name                            : The.Librarians.S04E01.German.DL.720p.BluRay.x264-EXCiTED\the.librarians.s04e01.german.dl.720p.bluray.x264-excited.mkv
Format                                   : Matroska
Format version                           : Version 2
File size                                : 1.29 GiB
Duration                                 : 42mn 25s
Overall bit rate                         : 4 342 Kbps
Writing application                      : mkvmerge v4.1.1 ('Bouncin' Back') built on Jul  3 2010 22:54:08
Writing library                          : libebml v1.0.0 + libmatroska v1.0

Video
ID                                       : 1
Format                                   : AVC
Format/Info                              : Advanced Video Codec
Format profile                           : High@L4.1
Format settings, CABAC                   : Yes
Format settings, ReFrames                : 5 frames
Codec ID                                 : V_MPEG4/ISO/AVC
Duration                                 : 42mn 25s
Bit rate                                 : 2 107 Kbps
Width                                    : 1 280 pixels
Height                                   : 720 pixels
Display aspect ratio                     : 16:9
Frame rate mode                          : Constant
Frame rate                               : 23.976 fps
Color space                              : YUV
Chroma subsampling                       : 4:2:0
Bit depth                                : 8 bits
Scan type                                : Progressive
Bits/(Pixel*Frame)                       : 0.095
Stream size                              : 639 MiB (49%)
Writing library                          : x264 core 155 r2901 7d0ff22
Encoding settings                        : cabac=1 / ref=5 / deblock=1:-3:-3 / analyse=0x3:0x113 / me=umh / subme=8 / psy=1 / psy_rd=1.00:0.15 / mixed_ref=1 / me_range=16 / chroma_me=1 / trellis=2 / 8x8dct=1 / cqm=0 / deadzone=21,11 / fast_pskip=0 / chroma_qp_offset=-3 / threads=24 / lookahead_threads=4 / sliced_threads=0 / nr=0 / decimate=1 / interlaced=0 / bluray_compat=0 / constrained_intra=0 / bframes=3 / b_pyramid=2 / b_adapt=2 / b_bias=0 / direct=3 / weightb=1 / open_gop=0 / weightp=2 / keyint=240 / keyint_min=23 / scenecut=40 / intra_refresh=0 / rc_lookahead=50 / rc=crf / mbtree=1 / crf=19.0 / qcomp=0.60 / qpmin=10 / qpmax=69 / qpstep=4 / ip_ratio=1.40 / aq=1:1.00
Language                                 : English
Default                                  : Yes
Forced                                   : No

Audio #1
ID                                       : 2
Format                                   : DTS
Format/Info                              : Digital Theater Systems
Mode                                     : 16
Format settings, Endianness              : Big
Codec ID                                 : A_DTS
Duration                                 : 42mn 25s
Bit rate mode                            : Constant
Bit rate                                 : 1 509 Kbps
Channel(s)                               : 6 channels
Channel positions                        : Front: L C R, Side: L R, LFE
Sampling rate                            : 48.0 KHz
Bit depth                                : 24 bits
Compression mode                         : Lossy
Stream size                              : 458 MiB (35%)
Language                                 : German
Default                                  : Yes
Forced                                   : No

Audio #2
ID                                       : 3
Format                                   : AC-3
Format/Info                              : Audio Coding 3
Mode extension                           : CM (complete main)
Format settings, Endianness              : Big
Codec ID                                 : A_AC3
Duration                                 : 42mn 25s
Bit rate mode                            : Constant
Bit rate                                 : 640 Kbps
Channel(s)                               : 6 channels
Channel positions                        : Front: L C R, Side: L R, LFE
Sampling rate                            : 48.0 KHz
Bit depth                                : 16 bits
Compression mode                         : Lossy
Stream size                              : 194 MiB (15%)
Language                                 : English
Default                                  : No
Forced                                   : No

Text #1
ID                                       : 4
Format                                   : UTF-8
Codec ID                                 : S_TEXT/UTF8
Codec ID/Info                            : UTF-8 Plain Text
Language                                 : German
Default                                  : Yes
Forced                                   : Yes

Text #2
ID                                       : 5
Format                                   : UTF-8
Codec ID                                 : S_TEXT/UTF8
Codec ID/Info                            : UTF-8 Plain Text
Language                                 : English
Default                                  : No
Forced                                   : No

Menu
00:00:00.000                             : en:00:00:00.000
00:03:01.389                             : en:00:03:01.389
00:11:44.245                             : en:00:11:44.245
00:21:29.162                             : en:00:21:29.162
00:31:32.473                             : en:00:31:32.473
00:42:00.105                             : en:00:42:00.105



Download:
Share-Online.biz Share-Online.bizShare-Online.bizShare-Online.biz | Rapidgator.net Rapidgator.netRapidgator.netRapidgator.net
 

Kommentare